Меч короля Артура 3D / King Arthur: Legend of the Sword 3D (Гай Ричи) [2017, фэнтези, боевик, драма, приключения, BDRip 1080p] 3D

Ответить на тему
 

ruhal ®

Стаж: 2 года 6 месяцев

Сообщений: 1181

Симпатии: 1836

- -Меч короля Артура 3D / King Arthur: Legend of the Sword 3D- Год выпуска: 2017
Страна: США
Жанр: фэнтези, боевик, драма, приключения
Продолжительность: 01:59:00
Субтитры: Русские, английские, украинские
Перевод: Дублированный [iTunes]-В ролях: Чарли Ханнэм, Астрид Берже-Фрисби, Джуд Лоу, Джимон Хонсу, Эрик Бана,
Эйдан Гиллен, Фредди Фокс, Крэйг МакГинли, Том Ву, Кингсли Бен-Адир-Режиссёр: Гай Ричи-Описание: Молодой Артур живёт на задворках Лондиниума вместе со своей бандой.
Он и понятия не имел о своём королевском происхождении, пока однажды не взял в руки меч Эскалибур.
Меч начинает менять Артура. В результате он присоединяется к сопротивлению и таинственной молодой
девушке по имени Гвиневра. Ему предстоит научиться понимать магическое оружие, которым он овладел,
столкнуться со своими собственными демонами и объединить народ в борьбе против диктатора Вортигерна,
убившего его родителей и завладевшего короной.-Качество: BDRip 1080p 3D
Формат: MKV
Формат 3D: SbS / горизонтальная анаморфная стереопара
Порядок ракурсов: левый ракурс первый
Видео: MPEG4 Video (H264) 1920x1080 23.976fps 15.5 Mbps
Аудио: 1 Dolby AC3 48000Hz 6ch 384kbps [A: Дубляж - iTunes [rus]
Аудио: 2 Dolby AC3 48000Hz stereo 192kbps [A: Дубляж - iTunes [ukr]
Аудио: 3Dolby AC3 48000Hz 6ch 640kbps [A: Original [eng]
-

MI

General
Unique ID : 237154178579021987521558352656577117674 (0xB26A3BBFDA49859F81CDC43CD510BDEA)
Complete name : E:\Films\King.Arthur.Legend.of.the.Sword.2017.1080p.3D.mkv
Format : Matroska
Format version : Version 4 / Version 2
File size : 14.4 GiB
Duration : 2h 6mn
Overall bit rate : 16.4 Mbps
Movie name : King.Arthur.Legend.of.the.Sword.2017.1080p.3D..Half-SBS.Master5
Encoded date : UTC 2017-08-03 00:17:48
Writing application : mkvmerge v8.1.0 ('Psychedelic Postcard') 32bit
Writing library : libebml v1.3.1 + libmatroska v1.4.2
Attachements : small_cover.jpg / small_cover_land.jpg / cover.jpg / cover_land.jpg
DURATION : 01:56:53.548000000
NUMBER_OF_FRAMES : 1451
NUMBER_OF_BYTES : 43536
_STATISTICS_WRITING_APP : mkvmerge v8.1.0 ('Psychedelic Postcard') 32bit
_STATISTICS_WRITING_DATE_UTC : 2017-08-03 00:17:48
_STATISTICS_TAGS : BPS DURATION NUMBER_OF_FRAMES NUMBER_OF_BYTES
Video
ID : 1
Format : AVC
Format/Info : Advanced Video Codec
Format profile : [email protected]
Format settings, CABAC : Yes
Format settings, ReFrames : 1 frame
Format settings, GOP : M=1, N=24
Codec ID : V_MPEG4/ISO/AVC
Duration : 2h 6mn
Bit rate mode : Constant
Bit rate : 15.5 Mbps
Width : 1 920 pixels
Height : 1 080 pixels
Display aspect ratio : 16:9
Frame rate mode : Constant
Frame rate : 23.976 fps
Color space : YUV
Chroma subsampling : 4:2:0
Bit depth : 8 bits
Scan type : Progressive
Bits/(Pixel*Frame) : 0.312
Stream size : 13.1 GiB (91%)
Title : King.Arthur.Legend.of.the.Sword.2017.1080p.3D..Half-SBS.Master5
Language : English
Default : Yes
Forced : No
Color primaries : BT.709
Transfer characteristics : BT.709
Matrix coefficients : BT.709
Color range : Limited
Audio #1
ID : 2
Format : AC-3
Format/Info : Audio Coding 3
Mode extension : CM (complete main)
Format settings, Endianness : Big
Codec ID : A_AC3
Duration : 2h 6mn
Bit rate mode : Constant
Bit rate : 384 Kbps
Channel(s) : 6 channels
Channel positions : Front: L C R, Side: L R, LFE
Sampling rate : 48.0 KHz
Bit depth : 16 bits
Compression mode : Lossy
Stream size : 347 MiB (2%)
Title : Дубляж - iTunes
Language : Russian
Default : Yes
Forced : No
Audio #2
ID : 3
Format : AC-3
Format/Info : Audio Coding 3
Mode extension : CM (complete main)
Format settings, Endianness : Big
Codec ID : A_AC3
Duration : 2h 6mn
Bit rate mode : Constant
Bit rate : 192 Kbps
Channel(s) : 2 channels
Channel positions : Front: L R
Sampling rate : 48.0 KHz
Bit depth : 16 bits
Compression mode : Lossy
Stream size : 173 MiB (1%)
Title : Дубляж - iTunes
Language : Ukrainian
Default : No
Forced : No
Audio #3
ID : 4
Format : AC-3
Format/Info : Audio Coding 3
Mode extension : CM (complete main)
Format settings, Endianness : Big
Codec ID : A_AC3
Duration : 2h 6mn
Bit rate mode : Constant
Bit rate : 640 Kbps
Channel(s) : 6 channels
Channel positions : Front: L C R, Side: L R, LFE
Sampling rate : 48.0 KHz
Bit depth : 16 bits
Compression mode : Lossy
Stream size : 578 MiB (4%)
Title : Original
Language : English
Default : No
Forced : No
Text #1
ID : 5
Format : UTF-8
Codec ID : S_TEXT/UTF8
Codec ID/Info : UTF-8 Plain Text
Title : Форсированные
Language : Russian
Default : Yes
Forced : No
Text #2
ID : 6
Format : UTF-8
Codec ID : S_TEXT/UTF8
Codec ID/Info : UTF-8 Plain Text
Title : Полные
Language : Russian
Default : No
Forced : No
Text #3
ID : 7
Format : UTF-8
Codec ID : S_TEXT/UTF8
Codec ID/Info : UTF-8 Plain Text
Title : Форсированные
Language : Ukrainian
Default : No
Forced : No
Text #4
ID : 8
Format : UTF-8
Codec ID : S_TEXT/UTF8
Codec ID/Info : UTF-8 Plain Text
Title : Full
Language : English
Default : No
Forced : No
Text #5
ID : 9
Format : UTF-8
Codec ID : S_TEXT/UTF8
Codec ID/Info : UTF-8 Plain Text
Title : SDH
Language : English
Default : No
Forced : No
Menu
00:00:00.000 : en:(01)00:00:00:000
00:12:43.220 : en:(02)00:12:43:220
00:21:05.347 : en:(03)00:21:05:347
00:32:32.659 : en:(04)00:32:32:659
00:43:09.378 : en:(05)00:43:09:378
00:56:47.987 : en:(06)00:56:47:987
01:06:48.546 : en:(07)01:06:48:546
01:14:13.031 : en:(08)01:14:13:031
01:23:44.394 : en:(09)01:23:44:394
01:36:36.791 : en:(10)01:36:36:791
01:46:57.244 : en:(11)01:46:57:244
01:58:58.798 : en:(12)01:58:58:798
02:06:13.232 : en:(13)02:06:13:232

Создавать темы 05-Авг-2017 09:50

[Профиль]  [ЛС] 
Показать сообщения:    
Ответить на тему

Текущее время: 20-Окт 10:12

Часовой пояс: UTC + 5



Вы не можете начинать темы
Вы не можете отвечать на сообщения
Вы не можете редактировать свои сообщения
Вы не можете удалять свои сообщения
Вы не можете голосовать в опросах
Вы не можете прикреплять файлы к сообщениям
Вы не можете скачивать файлы